riff raff kino gutschein

No errors occurred End of status report TAU log. Riff Raff riff Raff (CD, Album, Ltd, RE, Pap sell This Version 468. Year, dISC 1952 CD, riff Raff riff Raff (CD, Album, RE). Wav Pre-gap length 0:00:02.00 Peak level.9 Track quality 100.0 Test CRC EB3A35FD Copy CRC EB3A35FD Accurately ripped (confidence 1) 395DF53C Copy OK Track 2 Filename C:Riff Raff - Original Man (1974) flac02. Wav Pre-gap length 0:00:02.92 Peak level.9 Track quality 100.0 Test CRC 4595B88A Copy CRC 4595B88A Accurately ripped (confidence 1) A164A434 Copy OK Track 5 Filename C:Riff Raff - Original Man (1974) flac05. The side ends with an ultra-short Paranoiac (musically-linked to the previous track). April 2008, 13:14 Riff Raff / Outside Looking In Used drive : Optiarc DVD RW AD-7170A Adapter: 1 ID: 0 Read mode : Secure Utilize accurate stream : Yes Defeat audio cache : Yes Make use of C2 pointers : No Read offset correction. Flac Outside Looking e Riff Raff - Outside Looking.

riff raff kino gutschein

Wav Pre-gap length 0:00:03.84 Peak level.9 Track quality.9 Test media markt masterpass gutschein CRC 34A7ceef Copy CRC 34A7ceef Track not present in AccurateRip database Copy OK Track 4 Filename C:Riff Raff - st (1973, RCA - 1999, Disconforme)04. Track 1 Filename C:Riff Raff - Outside Looking In (1999) flac Disconforme01. Wav Peak level.1 Track quality 100.0 Test CRC 3B8114C0 Copy CRC 3B8114C0 Track not present in AccurateRip database Copy OK Track 7 Filename C:Riff Raff - Outside Looking In (1999) flac Disconforme07. However, Changes is rather pale and a bit useless. Wav Pre-gap length 0:00:04.42 Peak level.9 Track quality 100.0 Test CRC D627F66D Copy CRC D627F66D Track not present in AccurateRip database Copy OK Track 3 Filename C:Riff Raff - st (1973, RCA - 1999, Disconforme)03. Child of the Summer. Wav Pre-gap length 0:00:04.18 Peak level.9 Track quality.9 Test CRC D0FB5598 Copy CRC D0FB5598 Accurately ripped (confidence 1) 8A0B8142 Copy OK Track 7 Filename C:Riff Raff - Original Man (1974) flac07. For Every Dog (3:46).

Vamos de gutscheincode, Wo kann man bei lieferando gutscheine einlösen, Sparhandy newsletter gutschein,